#TITLE:What are you doing today;
#SUBTITLE:Expi3nze;
#ARTIST:Hello Venus;
#TITLETRANSLIT:;
#SUBTITLETRANSLIT:;
#ARTISTTRANSLIT:;
#CREDIT:;
#BANNER:bn.png;
#BACKGROUND:bg.png;
#LYRICSPATH:;
#CDTITLE:cdtitle.png;
#MUSIC:HelloVenus.mp3;
#OFFSET:-0.391;
#SAMPLESTART:52.583;
#SAMPLELENGTH:26.301;
#SELECTABLE:YES;
#BPMS:0.000=146.002,2.000=145.994,3.000=146.002,5.000=145.994,6.000=146.002,9.000=145.994,10.000=146.002,12.000=145.994,13.000=146.002,16.000=145.994,17.000=146.002,19.000=145.994,20.000=146.002,23.000=145.994,24.000=146.002,26.000=145.994,27.000=146.002,30.000=145.994,31.000=146.002,33.000=145.994,34.000=146.002,37.000=145.994,38.000=146.002,40.000=145.994,41.000=146.002,44.000=145.994,45.000=146.002,47.000=145.994,48.000=146.002,50.000=145.994,51.000=146.002,54.000=145.994,55.000=146.002,57.000=145.994,58.000=146.002,61.000=145.994,62.000=146.002,64.000=145.994,65.000=146.002,68.000=145.994,69.000=146.002,71.000=145.994,72.000=146.002,75.000=145.994,76.000=146.002,78.000=145.994,79.000=146.002,82.000=145.994,83.000=146.002,85.000=145.994,86.000=146.002,89.000=145.994,90.000=146.002,92.000=145.994,93.000=146.002,95.000=145.994,96.000=146.002,99.000=145.994,100.000=146.002,102.000=145.994,103.000=146.002,106.000=145.994,107.000=146.002,109.000=145.994,110.000=146.002,113.000=145.994,114.000=146.002,116.000=145.994,117.000=146.002,120.000=145.994,121.000=146.002,123.000=145.994,124.000=146.002,126.000=145.994,127.000=73.001,127.333=292.005,128.000=73.001,128.333=292.005,129.000=73.001,129.333=292.005,130.000=146.002,133.000=145.994,134.000=146.002,136.000=145.994,137.000=146.002,139.000=145.994,140.000=146.002,143.000=145.994,144.000=146.002,146.000=73.001,146.333=292.005,147.000=73.001,147.333=292.005,148.000=73.001,148.333=292.005,149.000=73.001,149.333=292.005,150.000=73.001,150.333=292.005,151.000=73.001,151.333=292.005,152.000=73.001,152.333=292.005,153.000=73.001,153.333=292.005,154.000=73.001,154.333=292.005,155.000=146.002,158.000=145.994,159.000=146.002,161.000=145.994,162.000=146.002,164.000=145.994,165.000=146.002,168.000=145.994,169.000=146.002,171.000=145.994,172.000=146.002,175.000=145.994,176.000=146.002,178.000=145.994,179.000=146.002,182.000=145.994,183.000=146.002,185.000=145.994,186.000=146.002,189.000=145.994,190.000=146.002,192.000=145.994,193.000=146.002,196.000=145.994,197.000=146.002,199.000=145.994,200.000=146.002,203.000=145.994,204.000=146.002,206.000=145.994,207.000=146.002,209.000=145.994,210.000=146.002,213.000=145.994,214.000=146.002,216.000=145.994,217.000=146.002,220.000=145.994,221.000=146.002,223.000=145.994,224.000=146.002,227.000=73.001,227.333=292.005,228.000=73.001,228.333=292.005,229.000=73.001,229.333=292.005,230.000=146.002,232.000=145.994,233.000=146.002,236.000=145.994,237.000=146.002,239.000=145.994,240.000=146.002,242.000=145.994,243.000=146.002,246.000=73.001,246.333=292.005,247.000=73.001,247.333=292.005,248.000=73.001,248.333=292.005,249.000=73.001,249.333=292.005,250.000=73.001,250.333=292.005,251.000=73.001,251.333=292.005,252.000=73.001,252.333=292.005,253.000=73.001,253.333=292.005,254.000=73.001,254.333=292.005,255.000=146.002,257.000=145.994,258.000=146.002,261.000=145.994,262.000=146.002,264.000=145.994,265.000=146.002,267.000=145.994,268.000=146.002,271.000=145.994,272.000=146.002,274.000=145.994,275.000=146.002,278.000=145.994,279.000=146.002,281.000=145.994,282.000=146.002,285.000=145.994,286.000=146.002,288.000=145.994,289.000=146.002,292.000=145.994,293.000=73.001,293.333=292.005,294.000=146.002,296.000=145.994,297.000=146.002,300.000=145.994,301.000=146.002,303.000=145.994,304.000=146.002,306.000=145.994,307.000=146.002,310.000=145.994,311.000=146.002,313.000=145.994,314.000=146.002,317.000=145.994,318.000=146.002,320.000=145.994,321.000=146.002,324.000=145.994,325.000=146.002,327.000=145.994,328.000=146.002,331.000=145.994;
#STOPS:;
#BGCHANGES:;
// cache tags:
#FIRSTBEAT:0.500;
#LASTBEAT:327.000;
#SONGFILENAME:Songs/SDO pack 4/What are you doing today - Hello Venus/HelloVenus.sm;
#HASMUSIC:1;
#HASBANNER:1;
#MUSICLENGTH:136.858;
// end cache tags

//---------------dance-single - ----------------
#NOTES:
     dance-single:
     :
     Hard:
     13:
     1.000,1.000,1.000,1.000,0.000,474.000,308.000,159.000,0.000,161.000:
0000
1001
1001
0000
0020
0000
0131
0102
,
0000
0000
1013
0000
2010
0000
3011
0021
,
0000
0000
1132
0000
1203
0000
1310
2000
,
0000
0000
3210
0000
1310
0000
0101
2101
,
0000
0101
3101
0000
0002
0000
1013
2010
,
0000
0000
3011
0000
0012
0000
1013
1020
,
0000
0000
2031
0000
3020
0000
0131
0200
,
0000
0000
0320
0000
0131
0000
0101
0201
,
0020
1001
1301
0030
0001
0010
0111
0101
,
1000
0010
0101
0010
0101
1000
0111
0101
,
0010
1000
0111
1000
0101
1000
0111
0101
,
1000
0010
0101
1000
0022
0000
1100
2233
,
0000
0010
3320
0000
0031
0010
1101
1001
,
0100
0010
1001
0010
1001
0100
1011
1001
,
0010
0100
1011
0100
1001
0100
1011
1001
,
0100
0010
1001
0100
2002
0000
0110
3223
,
0000
1001
2332
0000
3023
0000
0231
0001
,
0302
0000
2003
0000
3001
0010
1001
1100
,
1001
0000
1001
0000
2002
0010
3113
1100
,
0010
0001
1100
0000
0011
1000
0011
1001
,
1000
0011
0011
0000
2000
0000
3201
0001
,
0302
0000
0023
0000
1030
1000
1001
0110
,
1001
0000
0110
0000
0220
1000
1331
0011
,
1100
1000
0011
0000
1010
1010
1001
0010
,
0101
1100
1100
0000
0020
0000
1032
1000
,
2003
0000
3120
0000
0230
0000
0312
0010
,
2003
0000
3111
0000
0210
0000
0311
0011
,
0002
0000
1010
0000
1003
0010
0110
1100
,
1001
0110
0110
0000
0120
0000
2031
0010
,
3200
0000
0320
0000
0032
0000
2103
0100
,
3002
0000
1113
0000
2000
0000
0101
0101
,
3200
0011
1311
0200
,
0320
0000
2030
0000
3200
0320
1031
2000
,
3210
0300
0102
0203
0301
1100
0001
1100
,
1001
1001
0011
0100
2000
3200
1310
0002
,
0213
0300
1020
2030
3010
0101
0010
0101
,
1010
1010
1001
0000
2000
0000
3211
0000
,
0320
1132
2003
3211
,
0302
0000
1213
0000
0320
0000
1130
1100
,
2100
0011
3011
0200
,
0320
1001
1032
0000
1103
1100
0111
1010
,
1010
0001
0111
1010
1011
1000
0111
0101
,
0101
1100
0101
0000
0101
0101
1110
0101
,
0101
0010
1011
1001
0100
0011
1011
1001
,
1010
1011
1101
0000
0200
0000
1321
1001
,
2030
0000
3211
0000
0320
0000
1132
1100
,
2003
0000
3211
0000
0302
0000
1013
1010
,
2010
0000
0011
0000
3020
0000
1130
1100
,
2000
0101
3101
0000
0020
0000
0131
0102
,
0000
0000
1013
0000
2010
0000
3011
0021
,
0000
0000
1132
0000
1203
0000
1310
2000
,
0000
0000
3210
0000
1310
0000
0101
2101
,
0000
0101
3101
0000
0002
0000
1013
2010
,
0000
0000
3011
0000
0012
0000
1013
1020
,
0000
0000
2031
0000
3020
0000
0131
0200
,
0000
0320
0131
0202
,
0000
0000
0000
2303
,
3200
0000
0302
0000
1003
1100
0111
1010
,
1010
0001
0111
1010
1011
1000
0111
0101
,
0101
1100
0101
0000
0101
0101
1110
0101
,
0101
0010
1011
1001
0100
0011
1011
1001
,
1010
1011
1101
0000
0200
0000
1321
0000
,
2030
3211
0320
1132
,
2003
0000
3211
0000
0302
0000
1013
1010
,
2010
0011
3020
2030
,
3200
0011
0321
0000
1130
1100
0111
1010
,
1010
0001
0111
1010
1011
1000
0111
0101
,
0101
1100
0101
0000
0101
0101
1110
0101
,
0101
0010
1011
1001
0100
0011
1011
1001
,
1010
1011
1101
0000
0200
0000
1321
1001
,
2030
0000
3211
0000
0320
0000
1132
1100
,
2003
0000
3211
0000
0302
0000
1013
1010
,
2010
0000
0011
0000
3020
0000
1130
1100
,
2000
0101
3101
0000
0001
0010
0111
0101
,
1000
0010
0101
0010
0101
1000
0111
0101
,
0010
1000
0111
1000
0101
1000
0111
0101
,
1000
0010
0101
1000
0022
0000
1100
2233
,
0000
0010
3320
0000
0031
0010
1101
1001
,
0100
0010
1001
0010
1001
0100
1011
1001
,
0010
0100
1011
0100
1001
0100
1011
1001
,
0100
0010
1001
0000
2002
0000
0110
3223
,
0000
1001
2332
0000
0000
0000
3003
0000
,
0000
0000
0000
0000
,
0000
0000
0000
0000
,
0000
0000
0000
0000
,
0000
0000
0000
0000
,
0000
0000
0000
0000
,
0000
0000
0000
0000
,
0000
0000
0000
0000
,
0000
0000
0000
0000
;
